今天是: 2020-05-27    美好的一天,从现在开始

迅雷影吧

 找回密码
 立即注册
搜索
查看: 122|回复: 6

绝地战警:疾速追击 Bad.Boys.for.Life.2020.720p.BluRay.x264-WUTANG 5.46GB

[复制链接]

该用户从未签到

1万

主题

1万

帖子

4万

积分

管理员

Rank: 9Rank: 9Rank: 9

积分
43530
发表于 2020-4-12 10:36:01 | 显示全部楼层 |阅读模式
帖子完整标题:绝地战警:疾速追击 Bad.Boys.for.Life.2020.720p.BluRay.x264-WUTANG 5.46GB

33306a8bcc96c.png

◎译  名 绝地战警:疾速追击 / Bad Boys 3 / 绝地战警3 / 绝地战警FOR LIFE(台) / 重案梦幻再重组(港)
◎片  名 Bad Boys for Life
◎年  代 2020
◎产  地 美国
◎类  别 喜剧 / 动作 / 犯罪
◎语  言 英语
◎上映日期 2020(中国大陆) / 2020-01-17(美国)
◎IMDb评分  6.9/10 from 63772 users
◎片  长 124分钟
◎导  演 阿迪尔·埃尔·阿比 Adil El Arbi / 比拉勒·法拉赫 Bilall Fallah
◎编  剧 克里斯·布雷姆纳 Chris Bremner / 乔·卡纳汉 Joe Carnahan / 乔治·加洛 George Gallo / 大卫·古根海姆 David Guggenheim / 安东尼·塔姆巴基斯 Anthony Tambakis
◎主  演 威尔·史密斯 Will Smith
       马丁·劳伦斯 Martin Lawrence
       凡妮莎·哈金斯 Vanessa Hudgens
       亚历山大·路德韦格 Alexander Ludwig
       乔·潘托里亚诺 Joe Pantoliano
       海皮·安德森 Happy Anderson
       查尔斯·梅尔顿 Charles Melton
       凯特·德尔·卡斯蒂洛 Kate del Castillo
       葆拉·努涅斯 Paola Nú?ez
       Sharon Pfeiffer
       DJ卡拉德 DJ Khaled
       Jennifer Badger
       Massi Furlan
       玛丽亚·Z·威尔逊 Maria Z. Wilson
       Emily Towles
       伊沃·南迪 Ivo Nandi
       大卫·莫拉蒂 David Moretti
       安东尼·莫利纳利 Anthony Molinari
       汉斯·马雷罗 Hans Marrero
       Troy Brenna
       巴迪·沃特金斯 Buddy Watkins
       David L. Marston
       约翰·盖蒂尔 John Gettier
       塞尔吉奥·布里奥内斯 Sergio Briones
       卡洛斯·格雷罗 Carlos Guerrero
       德里克?吉尔伯特 Derrick Gilbert
       Chick Bernhardt


◎标  签 动作 | 美国 | 犯罪 | 喜剧 | 2020 | WillSmith | 搞笑 | 黑色幽默

◎简  介  

  曾制作《珍珠港》、《壮志凌云》、《加勒比海盗》系列等爆款电影的好莱坞金牌制片人全新倾力打造的《绝地战警:疾速追击》,讲述了迈阿密警员麦克(威尔·史密斯饰)遭遇神秘黑帮势力的暗杀伏击,为了迎战势力庞大火力惊人的黑帮分子,解决隐藏在暗处的危机,麦克找回曾经的搭档马库斯(马丁·劳伦斯饰),“嘴炮二人组”再度集结开启沙雕模式,不仅时刻上演逗比互怼,更在迈阿密街头与黑帮展开空前绝后的飙车枪战大戏。这对最佳搭档究竟能否在枪林弹雨下突出重围,找出幕后黑手完成绝地反杀?
Video
ID                                       : 1
Format                                   : AVC
Format/Info                              : Advanced Video Codec
Format settings                          : CABAC / 8 Ref Frames
Format settings, CABAC                   : Yes
Format settings, Reference frames        : 8 frames
Codec ID                                 : V_MPEG4/ISO/AVC
Duration                                 : 2 h 3 min
Bit rate                                 : 4 790 kb/s
Width                                    : 1 280 pixels
Height                                   : 536 pixels
Display aspect ratio                     : 2.40:1
Frame rate mode                          : Constant
Frame rate                               : 23.976 (24000/1001/189150) FPS
Color space                              : YUV
Chroma subsampling                       : 4:2:0
Bit depth                                : 8 bits
Scan type                                : Progressive
Bits/(Pixel*Frame)                       : 0.291
Stream size                              : 4.15 GiB (76%)
Writing library                          : x264 core 159 r2991 1771b55
Encoding settings                        : cabac=1 / ref=8 / deblock=1:-3:-3 / analyse=0x3:0x133 / me=umh / subme=8 / psy=1 / psy_rd=1.00:0.00 / mixed_ref=1 / me_range=24 / chroma_me=1 / trellis=2 / 8x8dct=1 / cqm=0 / deadzone=21,11 / fast_pskip=0 / chroma_qp_offset=-2 / threads=17 / lookahead_threads=2 / sliced_threads=0 / nr=0 / decimate=1 / interlaced=0 / bluray_compat=0 / constrained_intra=0 / bframes=3 / b_pyramid=2 / b_adapt=2 / b_bias=0 / direct=3 / weightb=1 / open_gop=0 / weightp=2 / keyint=230 / keyint_min=23 / scenecut=40 / intra_refresh=0 / rc_lookahead=60 / rc=2pass / mbtree=1 / bitrate=4790 / ratetol=1.0 / qcomp=0.60 / qpmin=0 / qpmax=69 / qpstep=4 / cplxblur=20.0 / qblur=0.5 / ip_ratio=1.40 / aq=1:1.00
Default                                  : Yes
Forced                                   : No
Color range                              : Limited
Matrix coefficients                      : BT.709

Audio
ID                                       : 2
Format                                   : DTS
Format/Info                              : Digital Theater Systems
Codec ID                                 : A_DTS
Duration                                 : 2 h 3 min
Bit rate mode                            : Constant
Bit rate                                 : 1 509 kb/s
Channel(s)                               : 6 channels
Channel layout                           : C L R Ls Rs LFE
Sampling rate                            : 48.0 kHz
Frame rate                               : 93.750 FPS (512 SPF)
Bit depth                                : 24 bits
Compression mode                         : Lossy
Stream size                              : 1.31 GiB (24%)
Title                                    : English
Language                                 : English
Default                                  : Yes
Forced                                   : No

Text
ID                                       : 3
Format                                   : UTF-8
Codec ID                                 : S_TEXT/UTF8
Codec ID/Info                            : UTF-8 Plain Text
Duration                                 : 1 h 45 min
Bit rate                                 : 2 b/s
Count of elements                        : 77
Stream size                              : 2.22 KiB (0%)
Title                                    : English Forced
Language                                 : English
Default                                  : Yes
Forced                                   : Yes

Menu
00:00:00.000                             : en:Chapter 01
00:07:33.203                             : en:Chapter 02
00:14:56.646                             : en:Chapter 03
00:23:43.255                             : en:Chapter 04
00:31:05.614                             : en:Chapter 05
00:38:43.071                             : en:Chapter 06
00:45:26.349                             : en:Chapter 07
00:53:27.329                             : en:Chapter 08
01:00:22.035                             : en:Chapter 09
01:07:29.254                             : en:Chapter 10
01:12:55.162                             : en:Chapter 11
01:22:12.344                             : en:Chapter 12
01:29:49.092                             : en:Chapter 13
01:36:47.802                             : en:Chapter 14
01:42:08.581                             : en:Chapter 15
01:53:55.912                             : en:Chapter 16
01:58:00.699                             : en:Chapter 17
689aab4029eb4.png



                                                                                                                                                                                                        
                                                                                                                                                                                                                                                                                                                                                                                                                                                                                                                                                                                                                                                                                                                                                                                                                                                      
游客,如果您要查看本帖隐藏内容请回复
回复

使用道具 举报

  • TA的每日心情
    难过
    7 天前
  • 签到天数: 2 天

    [LV.1]初来乍到

    0

    主题

    230

    帖子

    716

    积分

    月度VIP

    积分
    716
    发表于 2020-4-22 09:53:06 | 显示全部楼层
    啊啊啊啊啊啊啊啊啊啊啊啊啊啊啊
    回复

    使用道具 举报

  • TA的每日心情

    2020-4-22 18:14
  • 签到天数: 1 天

    [LV.1]初来乍到

    0

    主题

    4

    帖子

    10

    积分

    新手上路

    Rank: 1

    积分
    10
    发表于 2020-4-22 18:16:53 | 显示全部楼层
    要看这片
    回复

    使用道具 举报

  • TA的每日心情
    擦汗
    昨天 15:55
  • 签到天数: 12 天

    [LV.3]偶尔看看II

    0

    主题

    186

    帖子

    544

    积分

    高级会员

    Rank: 4

    积分
    544
    发表于 2020-4-22 22:02:59 | 显示全部楼层
    2222222222222222222222222222
    回复

    使用道具 举报

  • TA的每日心情
    难过
    昨天 13:26
  • 签到天数: 5 天

    [LV.2]偶尔看看I

    0

    主题

    21

    帖子

    54

    积分

    注册会员

    Rank: 2

    积分
    54
    发表于 2020-5-13 21:43:20 | 显示全部楼层
    1111111111111111111111
    回复

    使用道具 举报

  • TA的每日心情
    无聊
    昨天 17:21
  • 签到天数: 44 天

    [LV.5]常住居民I

    0

    主题

    93

    帖子

    280

    积分

    中级会员

    Rank: 3Rank: 3

    积分
    280
    发表于 5 天前 | 显示全部楼层
    谢谢分享
    回复

    使用道具 举报

  • TA的每日心情

    4 天前
  • 签到天数: 7 天

    [LV.3]偶尔看看II

    0

    主题

    42

    帖子

    708

    积分

    年度VIP

    积分
    708
    发表于 5 天前 | 显示全部楼层
    5555555555555
    回复

    使用道具 举报

    您需要登录后才可以回帖 登录 | 立即注册

    本版积分规则

    Archiver|手机版|小黑屋|迅雷影吧
    本网站所有资源来自网络,如无意中侵犯了您的权益,请发邮件至2547816495@qq.com,立即清除相关链接

    GMT+8, 2020-5-27 01:04 , Processed in 0.170236 second(s), 28 queries .

    Powered by Discuz! X3.4

    Copyright © 2001-2020, Tencent Cloud.

    快速回复 返回顶部 返回列表